4K天堂

 找回密碼
 立即注冊
查看: 15606|回復: 650
打印 上一主題 下一主題

[中國] [玉蒲團現代版].Yu.Pui.Tsuen.1996.1080p.BluRay.x264.FLAC-PTH 國粵語中字/10.7GB

  [復制鏈接]

3609

主題

3610

帖子

1萬

積分

版主

Rank: 7Rank: 7Rank: 7

積分
15693
跳轉到指定樓層
樓主
發表于 2021-7-7 23:31:15 | 只看該作者 回帖獎勵 |倒序瀏覽 |閱讀模式


◎譯  名 玉蒲團現代版 / Yu Pui Tsuen
◎片  名 玉蒲團
◎年  代 1986
◎產  地 中國香港
◎類  別 劇情 / 情色
◎語  言 粵語
◎上映日期 1986-12-12(中國香港)
◎IMDb鏈接 https://www.imdb.com/title//
◎豆瓣鏈接 https://movie.douban.com/subject/34608241/
◎導  演 何藩 Fan Ho (id:1029511)
◎演  員 森田水繪 Mizue Morita (id:1327548)

◎標  簽 情色 / 香港電影 / 香港 / 日本 / 日本女虐待 / 1986 / 森田水繪 / 1980s

◎簡  介
  玉蒲團(1986)與足本玉蒲團(浮世風情繪)1987并不是同一部電影。講述了香港先生阿Paul(車保羅飾)在深山古寺里拜訪了高僧(關海山飾)之后經歷一連串艷遇又回到古寺悔過的故事。本片據主演車保羅透露是由倉田保昭介紹去日本拍功夫片卻不想被騙而拍成了情色片。
General
Unique ID : 139769561702776097812971304872628411433 (0x6926A36F79A287C939652AD7716F5C29)
Complete name : Yu.Pui.Tsuen.III.1996.1080p.BluRay.x264.FLAC.2.0.2Audio-PTH.mkv
Format : Matroska
Format version : Version 4
File size : 10.7 GiB
Duration : 1 h 36 min
Overall bit rate mode : Variable
Overall bit rate : 15.9 Mb/s
Movie name : Yu Pui Tsuen III 1996
Encoded date : UTC 2021-06-26 01:19:33
Writing application : mkvmerge v58.0.0 ('Supper's Ready') 64-bit
Writing library : libebml v1.4.2 + libmatroska v1.6.4
Cover : Yes
Attachments : cover.jpg

Video
ID : 1
Format : AVC
Format/Info : Advanced Video Codec
Format profile : [email protected]
Format settings : CABAC / 4 Ref Frames
Format settings, CABAC : Yes
Format settings, Reference frames : 4 frames
Codec ID : V_MPEG4/ISO/AVC
Duration : 1 h 36 min
Bit rate : 14.5 Mb/s
Width : 1 920 pixels
Height : 1 080 pixels
Display aspect ratio : 16:9
Frame rate mode : Constant
Frame rate : 24.000 FPS
Color space : YUV
Chroma subsampling : 4:2:0
Bit depth : 8 bits
Scan type : Progressive
Bits/(Pixel*Frame) : 0.291
Stream size : 9.75 GiB (91%)
Writing library : x264 core 163 r3059+79M f2a8266 t_mod_test_xavc [(8 & 10)[email protected] X86_64]
Encoding settings : cabac=1 / ref=4 / deblock=1:-3:-3 / analyse=0x3:0x133 / me=umh / subme=11 / psy=1 / fade_compensate=0.00 / psy_rd=1.00:0.00 / mixed_ref=1 / me_range=48 / chroma_me=1 / trellis=2 / 8x8dct=1 / cqm=0 / deadzone=21,11 / fast_pskip=0 / chroma_qp_offset=-3 / threads=34 / lookahead_threads=8 / sliced_threads=0 / nr=0 / decimate=0 / interlaced=0 / bluray_compat=0 / constrained_intra=0 / fgo=0 / bframes=11 / b_pyramid=2 / b_adapt=2 / b_bias=0 / direct=3 / weightb=1 / open_gop=0 / weightp=2 / keyint=240 / keyint_min=1 / scenecut=40 / intra_refresh=0 / rc_lookahead=72 / rc=crf / mbtree=0 / crf=18.5000 / qcomp=0.60 / qpmin=0:0:0 / qpmax=69:69:69 / qpstep=4 / vbv_maxrate=62500 / vbv_bufsize=78125 / crf_max=0.0 / nal_hrd=none / filler=0 / ip_ratio=1.40 / pb_ratio=1.30 / aq=3:0.80 / aq-sensitivity=10.00 / aq-factor=1.00:1.00:1.00 / aq2=0 / aq3=0
Language : English
Default : Yes
Forced : No

Audio #1
ID : 2
Format : FLAC
Format/Info : Free Lossless Audio Codec
Codec ID : A_FLAC
Duration : 1 h 36 min
Bit rate mode : Variable
Bit rate : 702 kb/s
Channel(s) : 2 channels
Channel layout : L R
Sampling rate : 48.0 kHz
Frame rate : 11.719 FPS (4096 SPF)
Bit depth : 24 bits
Compression mode : Lossless
Stream size : 484 MiB (4%)
Title : Cantonese
Writing library : libFLAC 1.2.1 (UTC 2007-09-17)
Language : Chinese
Default : Yes
Forced : No

Audio #2
ID : 3
Format : FLAC
Format/Info : Free Lossless Audio Codec
Codec ID : A_FLAC
Duration : 1 h 36 min
Bit rate mode : Variable
Bit rate : 710 kb/s
Channel(s) : 2 channels
Channel layout : L R
Sampling rate : 48.0 kHz
Frame rate : 11.719 FPS (4096 SPF)
Bit depth : 24 bits
Compression mode : Lossless
Stream size : 490 MiB (4%)
Title : Mandarin
Writing library : libFLAC 1.2.1 (UTC 2007-09-17)
Language : Chinese
Default : Yes
Forced : No

Text #1
ID : 4
ID in the original source medium : 4609 (0x1201)
Format : PGS
Muxing mode : zlib
Codec ID : S_HDMV/PGS
Codec ID/Info : Picture based subtitle format used on BDs/HD-DVDs
Duration : 1 h 33 min
Bit rate : 26.5 kb/s
Count of elements : 1610
Stream size : 17.7 MiB (0%)
Title : chs
Language : Chinese
Default : Yes
Forced : No
Original source medium : Blu-ray

Text #2
ID : 5
ID in the original source medium : 4608 (0x1200)
Format : PGS
Muxing mode : zlib
Codec ID : S_HDMV/PGS
Codec ID/Info : Picture based subtitle format used on BDs/HD-DVDs
Duration : 1 h 33 min
Bit rate : 27.1 kb/s
Count of elements : 1610
Stream size : 18.0 MiB (0%)
Title : cht
Language : Chinese
Default : Yes
Forced : No
Original source medium : Blu-ray

Text #3
ID : 6
ID in the original source medium : 4610 (0x1202)
Format : PGS
Muxing mode : zlib
Codec ID : S_HDMV/PGS
Codec ID/Info : Picture based subtitle format used on BDs/HD-DVDs
Duration : 1 h 33 min
Bit rate : 31.8 kb/s
Count of elements : 1610
Stream size : 21.2 MiB (0%)
Language : English
Default : Yes
Forced : No
Original source medium : Blu-ray

Menu
00:00:00.000 : 第 01 章
00:09:11.625 : 第 02 章
00:15:14.708 : 第 03 章
00:24:35.541 : 第 04 章
00:31:59.083 : 第 05 章
00:39:22.416 : 第 06 章
00:49:03.708 : 第 07 章
00:56:19.833 : 第 08 章
01:05:26.250 : 第 09 章
01:14:12.291 : 第 10 章
01:21:21.708 : 第 11 章
01:28:31.666 : 第 12 章




游客,如果您要查看本帖隱藏內容請回復,或點此鏈接開通VIP會員,可免回復、免積分直接下載!

本帖子中包含更多資源

您需要 登錄 才可以下載或查看,沒有帳號?立即注冊

x
回復

使用道具 舉報

0

主題

123

帖子

283

積分

初級會員

Rank: 2

積分
283
沙發
發表于 2021-7-7 23:38:14 | 只看該作者
還沒看過這部電影,下載看看,謝謝分享
回復

使用道具 舉報

0

主題

2494

帖子

525

積分

中級會員

Rank: 3Rank: 3

積分
525
板凳
發表于 2021-7-7 23:42:39 | 只看該作者
何藩導演的青澀片 其實都挺有水準的
回復

使用道具 舉報

0

主題

645

帖子

149

積分

初級會員

Rank: 2

積分
149
地板
發表于 2021-7-7 23:50:26 | 只看該作者
下載看看,謝謝分享
回復

使用道具 舉報

0

主題

37

帖子

127

積分

初級會員

Rank: 2

積分
127
5#
發表于 2021-7-7 23:55:07 | 只看該作者
這個還真沒看過!
回復

使用道具 舉報

0

主題

499

帖子

82

積分

初級會員

Rank: 2

積分
82
6#
發表于 2021-7-7 23:57:13 | 只看該作者
Yu.Pui.Tsuen.1996.1080p.BluRay.x264.FLAC-PTH 國粵語中字
回復

使用道具 舉報

0

主題

48

帖子

361

積分

初級會員

Rank: 2

積分
361
7#
發表于 2021-7-8 00:06:54 | 只看該作者
以前還真沒聽說過這部
回復

使用道具 舉報

0

主題

614

帖子

343

積分

初級會員

Rank: 2

積分
343
8#
發表于 2021-7-8 00:20:37 | 只看該作者
謝謝樓主   辛苦了
回復

使用道具 舉報

0

主題

253

帖子

127

積分

初級會員

Rank: 2

積分
127
9#
發表于 2021-7-8 00:37:00 | 只看該作者
這個還真沒看過!
回復

使用道具 舉報

0

主題

19

帖子

393

積分

初級會員

Rank: 2

積分
393
10#
發表于 2021-7-8 00:51:14 | 只看該作者
做一個喜歡電影
回復

使用道具 舉報

您需要登錄后才可以回帖 登錄 | 立即注冊

本版積分規則

為防丟失網站網址,敬請關注官方微信公眾號,再也不會迷路!
4K天堂會一路堅持,共建高清電影愛好者的精神家園。

Archiver|手機版|小黑屋|4K電影下載

GMT+8, 2022-5-20 14:47 , Processed in 0.140624 second(s), 19 queries , Gzip On.

Powered by Discuz! X3.4

Copyright © 2001-2020, Tencent Cloud.

快速回復 返回頂部 返回列表
青青青在线视频一区二区