4K天堂

 找回密碼
 立即注冊
查看: 20479|回復: 1276
打印 上一主題 下一主題

[黑寡婦].2021.2160p.DSNP.WEB-DL.x265.10bit.HDR.DDP5.1.Atmos-CM 外掛中字/16GB

  [復制鏈接]

2463

主題

2513

帖子

4萬

積分

管理員

Rank: 9Rank: 9Rank: 9

積分
46566
跳轉到指定樓層
樓主
發表于 2021-7-9 15:52:34 | 只看該作者 回帖獎勵 |倒序瀏覽 |閱讀模式

◎譯  名 黑寡婦/The Black Widow
◎片  名 Black Widow
◎年  代 2021
◎產  地 美國
◎類  別 動作 / 科幻 / 冒險
◎語  言 英語
◎上映日期 2021(中國大陸) / 2021-07-07(中國香港) / 2021-07-09(美國/美國網絡)
◎豆瓣評分 /10 from 0 users
◎豆瓣鏈接 https://movie.douban.com/subject/25828589/
◎片  長 133分鐘
◎導  演 凱特·紹特蘭 Cate Shortland
◎編  劇 雅克·舍費爾 Jac Schaeffer / 內德·本森 Ned Benson / 埃里克·皮爾森 Eric Pearson / 斯坦·李 Stan Lee / 唐·赫克 Don Heck / 唐·里科 Don Rico
◎主  演 斯嘉麗·約翰遜 Scarlett Johansson
       弗洛倫絲·皮尤 Florence Pugh
       蕾切爾·薇茲 Rachel Weisz
       大衛·哈伯 David Harbour
       威廉·赫特 William Hurt
       雷·溫斯頓 Ray Winstone
       奧利維爾·里希特斯 Olivier Richters
       O·T·法格本 O.T. Fagbenle
       艾爾·安德森 Ever Anderson
       米歇爾·李 Michelle Lee
       拉娜·布隆代爾 Nanna Blondell
       維奧萊特·麥格勞 Violet McGraw
       賴恩·基拉·阿姆斯特朗 Ryan Kiera Armstrong
       約恩·巴特勒 Ione Butler
       喬治亞·柯蒂斯 Georgia Curtis
       泰·赫爾利 Ty Hurley
       安得烈·拜倫 Andrew Byron
       喬基姆·斯卡利 Joakim Skarli
       史蒂芬·薩姆森 Stephen Samson
       亞當·普里克特 Adam Prickett
       馬里安·洛倫西克 Marian Lorencik

◎標  簽 斯嘉麗·約翰遜 | 漫威 | 很期待黑寡婦獨立電影出現 | 超級英雄 | marvel | 科幻 | 美國 | ScarlettJohansson

◎簡  介  

  一部充滿動作戲的間諜驚悚片。娜塔莎·羅曼諾夫/黑寡婦遭遇與她的過去相關的一場危險陰謀,將直面自己那些更為黑暗的經歷。一股不惜一切要擊倒她的力量襲來,娜塔莎必須面對自己在成為復仇者的很久之前那作為間諜的過往,和曾遠離的破碎關系。

◎獲獎情況

  第7屆豆瓣電影年度榜單 ?(2020)
  最值得期待的外語電影
  
  第6屆豆瓣電影年度榜單 ?(2019)
  最值得期待的外語電影
Video
ID                                       : 1
Format                                   : HEVC
Format/Info                              : High Efficiency Video Coding
Format profile                           : Main [email protected]@High
HDR format                               : SMPTE ST 2086, HDR10 compatible
Codec ID                                 : V_MPEGH/ISO/HEVC
Duration                                 : 2 h 13 min
Bit rate                                 : 16.4 Mb/s
Width                                    : 3 840 pixels
Height                                   : 2 160 pixels
Display aspect ratio                     : 16:9
Frame rate mode                          : Constant
Frame rate                               : 23.976 (24000/1001/189150) FPS
Color space                              : YUV
Chroma subsampling                       : 4:2:0
Bit depth                                : 10 bits
Bits/(Pixel*Frame)                       : 0.082
Stream size                              : 15.3 GiB (95%)
Default                                  : Yes
Forced                                   : No
Color range                              : Limited
Color primaries                          : BT.2020
Transfer characteristics                 : PQ
Matrix coefficients                      : BT.2020 non-constant
Mastering display color primaries        : Display P3
Mastering display luminance              : min: 0.0050 cd/m2, max: 4000 cd/m2

Audio
ID                                       : 2
Format                                   : E-AC-3 JOC
Format/Info                              : Enhanced AC-3 with Joint Object Coding
Commercial name                          : Dolby Digital Plus with Dolby Atmos
Codec ID                                 : A_EAC3
Duration                                 : 2 h 13 min
Bit rate mode                            : Constant
Bit rate                                 : 768 kb/s
Channel(s)                               : 6 channels
Channel layout                           : L R C LFE Ls Rs
Sampling rate                            : 48.0 kHz
Frame rate                               : 31.250 FPS (1536 SPF)
Compression mode                         : Lossy
Stream size                              : 735 MiB (4%)
Title                                    : English
Language                                 : English
Service kind                             : Complete Main
Default                                  : No
Forced                                   : No
Complexity index                         : 16
Number of dynamic objects                : 15
Bed channel count                        : 1 channel
Bed channel configuration                : LFE

Text #1
ID                                       : 3
Format                                   : UTF-8
Codec ID                                 : S_TEXT/UTF8
Codec ID/Info                            : UTF-8 Plain Text
Duration                                 : 2 h 12 min
Bit rate                                 : 40 b/s
Count of elements                        : 1301
Stream size                              : 39.4 KiB (0%)
Title                                    : Spanish
Language                                 : Spanish
Default                                  : No
Forced                                   : No

Text #2
ID                                       : 4
Format                                   : UTF-8
Codec ID                                 : S_TEXT/UTF8
Codec ID/Info                            : UTF-8 Plain Text
Duration                                 : 2 h 12 min
Bit rate                                 : 43 b/s
Count of elements                        : 1319
Stream size                              : 42.7 KiB (0%)
Title                                    : French Canadian
Language                                 : French
Default                                  : No
Forced                                   : No

Text #3
ID                                       : 5
Format                                   : UTF-8
Codec ID                                 : S_TEXT/UTF8
Codec ID/Info                            : UTF-8 Plain Text
Duration                                 : 2 h 12 min
Bit rate                                 : 35 b/s
Count of elements                        : 1204
Stream size                              : 34.8 KiB (0%)
Title                                    : German
Language                                 : German
Default                                  : No
Forced                                   : No

Text #4
ID                                       : 6
Format                                   : UTF-8
Codec ID                                 : S_TEXT/UTF8
Codec ID/Info                            : UTF-8 Plain Text
Duration                                 : 2 h 12 min
Bit rate                                 : 34 b/s
Count of elements                        : 1299
Stream size                              : 33.8 KiB (0%)
Title                                    : Norwegian
Language                                 : Norwegian
Default                                  : No
Forced                                   : No

Text #5
ID                                       : 7
Format                                   : UTF-8
Codec ID                                 : S_TEXT/UTF8
Codec ID/Info                            : UTF-8 Plain Text
Duration                                 : 2 h 12 min
Bit rate                                 : 35 b/s
Count of elements                        : 1114
Stream size                              : 34.9 KiB (0%)
Title                                    : Dutch
Language                                 : Dutch
Default                                  : No
Forced                                   : No

Text #6
ID                                       : 8
Format                                   : UTF-8
Codec ID                                 : S_TEXT/UTF8
Codec ID/Info                            : UTF-8 Plain Text
Duration                                 : 2 h 12 min
Bit rate                                 : 39 b/s
Count of elements                        : 1297
Stream size                              : 38.5 KiB (0%)
Title                                    : Brazilian Portuguese
Language                                 : Portuguese
Default                                  : No
Forced                                   : No

Text #7
ID                                       : 9
Format                                   : UTF-8
Codec ID                                 : S_TEXT/UTF8
Codec ID/Info                            : UTF-8 Plain Text
Duration                                 : 2 h 12 min
Bit rate                                 : 33 b/s
Count of elements                        : 1256
Stream size                              : 32.4 KiB (0%)
Title                                    : French
Language                                 : French
Default                                  : No
Forced                                   : No

Text #8
ID                                       : 10
Format                                   : UTF-8
Codec ID                                 : S_TEXT/UTF8
Codec ID/Info                            : UTF-8 Plain Text
Duration                                 : 2 h 12 min
Bit rate                                 : 36 b/s
Count of elements                        : 1277
Stream size                              : 35.0 KiB (0%)
Title                                    : European Spanish
Language                                 : Spanish
Default                                  : No
Forced                                   : No

Text #9
ID                                       : 11
Format                                   : UTF-8
Codec ID                                 : S_TEXT/UTF8
Codec ID/Info                            : UTF-8 Plain Text
Duration                                 : 2 h 12 min
Bit rate                                 : 32 b/s
Count of elements                        : 1257
Stream size                              : 31.6 KiB (0%)
Title                                    : Japanese
Language                                 : Japanese
Default                                  : No
Forced                                   : No

Text #10
ID                                       : 12
Format                                   : UTF-8
Codec ID                                 : S_TEXT/UTF8
Codec ID/Info                            : UTF-8 Plain Text
Duration                                 : 2 h 12 min
Bit rate                                 : 35 b/s
Count of elements                        : 1080
Stream size                              : 34.8 KiB (0%)
Title                                    : Swedish
Language                                 : Swedish
Default                                  : No
Forced                                   : No

Text #11
ID                                       : 13
Format                                   : UTF-8
Codec ID                                 : S_TEXT/UTF8
Codec ID/Info                            : UTF-8 Plain Text
Duration                                 : 2 h 12 min
Bit rate                                 : 33 b/s
Count of elements                        : 923
Stream size                              : 32.4 KiB (0%)
Title                                    : Danish
Language                                 : Danish
Default                                  : No
Forced                                   : No

Text #12
ID                                       : 14
Format                                   : UTF-8
Codec ID                                 : S_TEXT/UTF8
Codec ID/Info                            : UTF-8 Plain Text
Duration                                 : 2 h 12 min
Bit rate                                 : 38 b/s
Count of elements                        : 1273
Stream size                              : 37.6 KiB (0%)
Title                                    : Portuguese
Language                                 : Portuguese
Default                                  : No
Forced                                   : No

Text #13
ID                                       : 15
Format                                   : UTF-8
Codec ID                                 : S_TEXT/UTF8
Codec ID/Info                            : UTF-8 Plain Text
Duration                                 : 2 h 12 min
Bit rate                                 : 40 b/s
Count of elements                        : 1278
Stream size                              : 39.1 KiB (0%)
Title                                    : Italian
Language                                 : Italian
Default                                  : No
Forced                                   : No

Text #14
ID                                       : 16
Format                                   : UTF-8
Codec ID                                 : S_TEXT/UTF8
Codec ID/Info                            : UTF-8 Plain Text
Duration                                 : 2 h 12 min
Bit rate                                 : 39 b/s
Count of elements                        : 1300
Stream size                              : 38.3 KiB (0%)
Title                                    : Finnish
Language                                 : Finnish
Default                                  : No
Forced                                   : No

Text #15
ID                                       : 17
Format                                   : UTF-8
Codec ID                                 : S_TEXT/UTF8
Codec ID/Info                            : UTF-8 Plain Text
Duration                                 : 2 h 12 min
Bit rate                                 : 39 b/s
Count of elements                        : 1306
Stream size                              : 38.8 KiB (0%)
Title                                    : English
Language                                 : English
Default                                  : No
Forced                                   : No

Text #16
ID                                       : 18
Format                                   : UTF-8
Codec ID                                 : S_TEXT/UTF8
Codec ID/Info                            : UTF-8 Plain Text
Duration                                 : 2 h 13 min
Bit rate                                 : 46 b/s
Count of elements                        : 1630
Stream size                              : 45.7 KiB (0%)
Title                                    : English [SDH]
Language                                 : English
Default                                  : No
Forced                                   : No







游客,如果您要查看本帖隱藏內容請回復,或點此鏈接開通VIP會員,可免回復、免積分直接下載!

本帖子中包含更多資源

您需要 登錄 才可以下載或查看,沒有帳號?立即注冊

x
回復

使用道具 舉報

0

主題

56

帖子

74

積分

初級會員

Rank: 2

積分
74
沙發
發表于 2021-7-10 10:45:44 | 只看該作者
牛逼,這么快就有得看了!謝謝分享!
回復

使用道具 舉報

0

主題

259

帖子

397

積分

初級會員

Rank: 2

積分
397
板凳
發表于 2021-7-10 10:46:57 | 只看該作者
感謝樓主分享
回復

使用道具 舉報

0

主題

81

帖子

117

積分

初級會員

Rank: 2

積分
117
地板
發表于 2021-7-10 10:47:41 | 只看該作者
謝謝樓主分享
回復

使用道具 舉報

0

主題

31

帖子

4

積分

新手上路

Rank: 1

積分
4
5#
發表于 2021-7-10 10:56:10 | 只看該作者
`````````````````````
回復

使用道具 舉報

0

主題

111

帖子

39

積分

新手上路

Rank: 1

積分
39
6#
發表于 2021-7-10 10:57:55 | 只看該作者
謝謝樓主 樓主辛苦了
回復

使用道具 舉報

0

主題

121

帖子

48

積分

新手上路

Rank: 1

積分
48
7#
發表于 2021-7-10 11:03:23 | 只看該作者
謝謝樓主 樓主辛苦了
回復

使用道具 舉報

0

主題

2

帖子

2

積分

新手上路

Rank: 1

積分
2
8#
發表于 2021-7-10 11:03:29 | 只看該作者
感謝樓主分享
回復

使用道具 舉報

0

主題

51

帖子

28

積分

新手上路

Rank: 1

積分
28
9#
發表于 2021-7-10 11:03:53 | 只看該作者
感謝樓主分享
回復

使用道具 舉報

0

主題

172

帖子

286

積分

初級會員

Rank: 2

積分
286
10#
發表于 2021-7-10 11:04:50 | 只看該作者
感謝樓主分享
回復

使用道具 舉報

您需要登錄后才可以回帖 登錄 | 立即注冊

本版積分規則

為防丟失網站網址,敬請關注官方微信公眾號,再也不會迷路!
4K天堂會一路堅持,共建高清電影愛好者的精神家園。

Archiver|手機版|小黑屋|4K電影下載

GMT+8, 2022-5-18 04:27 , Processed in 0.125000 second(s), 20 queries , Gzip On.

Powered by Discuz! X3.4

Copyright © 2001-2020, Tencent Cloud.

快速回復 返回頂部 返回列表
青青青在线视频一区二区